<?xml version="1.0" standalone="no"?>
<!DOCTYPE svg PUBLIC "-//W3C//DTD SVG 1.1//EN" "http://www.w3.org/Graphics/SVG/1.1/DTD/svg11.dtd">
<svg xmlns="http://www.w3.org/2000/svg">
<metadata>Copyright (C) 2018 by original authors @ fontello.com</metadata>
<defs>
<font id="ltx-lamaro" horiz-adv-x="1000" >
<font-face font-family="ltx-lamaro" font-weight="400" font-stretch="normal" units-per-em="1000" ascent="850" descent="-150" />
<missing-glyph horiz-adv-x="1000" />
<glyph glyph-name="two-quotes" unicode="&#xe804;" d="M192 784c-106 0-192-88-192-197 0-109 86-197 192-197 192 0 64-382-192-382v-92c457 0 635 868 192 868z m553 0c-106 0-192-88-192-197 0-109 86-197 192-197 191 0 63-382-192-382v-92c456 0 635 868 192 868z" horiz-adv-x="1000" />

<glyph glyph-name="layers" unicode="&#xe80c;" d="M1000 350c0 21-12 40-31 50l-74 37 74 37c0 0 0 0 0 0 19 10 31 29 31 50 0 21-12 40-31 49l-420 210c-31 16-67 16-98 0l-420-210c-19-9-31-28-31-49 0-21 12-40 31-50l74-37-74-37c-19-10-31-29-31-50s12-40 31-50l74-37-74-37c-19-9-31-28-31-50 0-21 12-40 31-49l420-210c15-8 32-12 49-12 17 0 34 4 49 12l420 210c19 9 31 28 31 49 0 22-12 41-31 50l-74 37 74 37c19 10 31 29 31 50z m-949 165c-4 3-5 7-5 9s1 6 5 8l421 210c9 5 18 7 28 7 10 0 20-2 29-7l420-210c4-2 5-6 5-8s-1-6-5-9l-420-210c-18-9-40-9-57 0l-421 210z m898-330c4-2 5-6 5-9 0-2-1-6-5-8l-420-210c-18-9-40-9-57 0l-421 210c-4 2-5 6-5 8 0 3 1 7 5 9l106 53 294-148c15-7 32-11 49-11 17 0 34 4 49 11l295 148 105-53z m0 157l-420-211c-18-9-40-9-57 0l-421 211c-4 2-5 6-5 8 0 2 1 6 5 9l106 52 294-147c15-8 32-12 49-12 17 0 34 4 49 12l295 147 105-52c4-3 5-7 5-9 0-2-1-6-5-8z" horiz-adv-x="1000" />

<glyph glyph-name="responsive" unicode="&#xe80d;" d="M932 759h-773c-38 0-68-29-68-68v-227c0-14 9-23 23-23s22 9 22 23v227c0 14 10 23 23 23h773c14 0 23-9 23-23v-545c0-14-9-23-23-23h-546c-13 0-22-9-22-23s9-23 22-23h46v-68c0-14-9-23-23-23h-23c-13 0-22-9-22-22s9-23 22-23h319c13 0 22 9 22 23s-9 22-22 22h-23c-14 0-23 9-23 23v68h273c39 0 68 30 68 69v545c0 39-29 68-68 68z m-459-773c2 7 4 14 4 23v68h137v-68c0-9 2-16 4-23h-145z m413 273h-500c-13 0-22-9-22-23s9-22 22-22h500c14 0 23 9 23 22s-9 23-23 23z m-636 137h-182c-38 0-68-30-68-69v-318c0-39 30-68 68-68h182c39 0 68 29 68 68v318c0 39-29 69-68 69z m23-387c0-14-9-23-23-23h-182c-13 0-22 9-22 23v318c0 14 9 23 22 23h182c14 0 23-9 23-23v-318z" horiz-adv-x="1000" />

<glyph glyph-name="settings" unicode="&#xe80e;" d="M642 130c-10 6-21 13-32 19 3 21 3 43 0 65 11 6 22 12 32 19 18 10 25 33 17 52 0 0 0 0 0 0l-23 55c-7 19-28 30-48 25-12-3-24-6-36-9-14 17-29 32-46 46 3 12 6 24 9 36 5 20-6 41-25 48l-55 23c-19 8-42 1-52-17-7-10-13-21-19-32-22 3-44 3-65 0-6 11-13 22-19 32-11 18-33 25-52 17l-56-23c-19-7-29-28-24-48 3-12 6-24 9-36-17-14-32-29-46-46-12 3-24 6-36 9-20 5-41-6-49-25l-23-55c-8-19 0-42 17-52 11-7 22-13 32-19-2-22-2-44 0-65-10-6-21-13-32-19-17-11-25-33-17-52l23-56c8-19 29-29 49-24 12 3 24 6 36 9 14-17 29-33 46-46-3-12-6-24-9-36-5-20 5-41 24-49l56-23c5-2 10-3 16-3 14 0 28 7 36 20 6 11 12 21 19 32 21-2 43-2 65 0 6-11 12-21 19-32 10-17 33-25 52-17l55 23c19 8 30 29 25 49-3 12-6 24-9 36 17 13 32 29 46 46 12-3 24-6 36-9 20-5 41 5 48 24l23 56c8 19 1 41-17 52z m-46-88c-11 3-23 6-35 9-16 4-33-2-44-15-11-15-25-29-41-41-13-10-19-28-14-44 3-12 6-23 9-34l-51-22c-6 11-12 21-18 31-9 15-25 23-42 21-19-2-38-2-58 0-16 2-33-6-41-21-6-10-12-21-18-31l-51 22c3 11 6 23 9 34 4 16-2 34-15 44-15 12-29 26-41 41-10 13-27 19-44 15-11-3-23-6-34-9l-22 51c11 6 21 12 31 18 15 8 23 25 21 41-2 20-2 39 0 58 2 17-6 33-21 42-10 6-20 12-31 18l22 51c11-3 23-6 34-9 17-5 34 1 44 14 12 16 26 30 41 41 13 11 19 28 15 44-3 12-6 24-9 35l51 21c6-10 12-20 18-31 8-14 25-23 41-20 20 2 39 2 58 0 17-3 33 6 42 20 6 11 12 21 18 31l51-21c-3-11-6-23-9-35-5-16 1-33 14-44 16-11 30-25 41-41 11-13 28-19 44-14 12 3 24 6 35 9l21-51c-10-6-20-12-31-18-14-9-23-25-20-42 2-19 2-38 0-58-3-16 6-33 20-41 11-6 21-12 31-18l-21-51z m-124 198c0 0 0 0 0 0-32 77-121 114-199 82-78-32-115-121-83-199 16-38 45-67 83-83 19-7 39-11 58-11s40 4 59 11c77 33 114 122 82 200z m-99-158c-27-11-56-11-83 0-27 11-47 31-58 58-23 55 3 118 58 141 14 5 27 8 41 8 42 0 83-25 100-66 23-55-4-119-58-141z m597 571c-8 1-16 2-24 3-4 14-9 27-16 39 5 6 10 13 15 19 10 14 8 34-4 46l-31 31c-12 12-32 14-46 4-6-5-13-10-19-15-12 7-25 12-39 16-1 8-2 16-3 24-3 17-18 30-35 30h-44c-17 0-32-13-35-30-1-8-2-16-3-24-14-4-27-9-39-16-6 5-13 10-19 15-14 10-34 8-46-4l-31-31c-12-12-14-32-4-46 5-6 10-13 15-19-7-12-12-25-16-39-8-1-16-2-24-3-17-3-30-18-30-35v-44c0-17 13-32 30-35 8-1 16-2 24-3 4-14 9-27 16-39-5-6-10-13-15-19-10-14-8-34 4-46l31-31c12-12 32-14 46-4 6 5 13 10 19 15 12-7 25-12 39-16 1-8 2-16 3-24 3-17 18-30 35-30h44c17 0 32 13 35 30 1 8 2 16 3 24 14 4 27 9 39 16 6-5 13-10 19-15 14-10 34-8 46 4l31 31c12 12 14 32 4 46-5 6-10 13-15 19 7 12 12 25 16 39 8 1 16 2 24 3 17 3 30 18 30 35v44c0 17-13 32-30 35z m-12-73c-7-1-15-2-22-3-14-2-26-12-29-25-4-14-9-26-16-38-7-13-6-28 3-39 4-6 8-12 13-17l-23-23c-5 5-11 9-17 13-11 9-26 10-39 3-12-7-24-12-38-16-13-3-23-15-25-29-1-7-2-15-3-22h-32c-1 7-2 15-3 22-2 14-12 26-25 29-14 4-26 9-38 16-13 7-28 6-39-3-6-4-12-8-17-13l-23 23c5 5 9 11 13 17 9 11 10 26 3 39-7 12-12 24-16 38-3 13-15 23-29 25-7 1-15 2-22 3v32c7 1 15 2 22 3 14 2 26 12 29 25 4 14 9 26 16 38 7 13 6 28-3 39-4 6-8 12-13 17l23 23c5-5 11-9 17-13 11-9 26-10 39-3 12 7 24 12 38 16 13 3 23 15 25 29 1 7 2 15 3 22h32c1-7 2-15 3-22 2-14 12-26 25-29 14-4 26-9 38-16 13-7 28-6 39 3 6 4 12 8 17 13l23-23c-5-5-9-11-13-17-9-11-10-26-3-39 7-12 12-24 16-38 3-13 15-23 29-25 7-1 15-2 22-3v-32z m-212 107c-50 0-91-41-91-91 0-50 41-91 91-91s91 41 91 91c0 50-41 91-91 91z m0-141c-28 0-50 22-50 50 0 28 22 50 50 50 28 0 50-22 50-50 0-28-22-50-50-50z" horiz-adv-x="1000" />

<glyph glyph-name="shopping-bag" unicode="&#xe80f;" d="M900-17l-58 649c-1 13-12 22-25 22h-121c0 108-88 196-196 196s-196-88-196-196h-121c-13 0-24-9-25-22l-57-649c0-1 0-1 0-2 0-72 66-131 148-131h503c81 0 148 59 148 131 0 1 0 1 0 2z m-400 817c81 0 146-65 146-146h-292c0 81 66 146 146 146z m252-900h-503c-54 0-98 36-99 80l56 625h98v-87c0-14 11-25 25-25s25 11 25 25v87h292v-87c0-14 11-25 25-25s25 11 25 25v87h98l56-625c-1-44-45-80-98-80z" horiz-adv-x="1000" />

<glyph glyph-name="chat" unicode="&#xe810;" d="M727 751h-671c-31 0-56-25-56-56v-403c0-31 25-56 56-56h44v-150c0-10 6-18 14-22 3-1 6-2 9-2 7 0 13 3 17 7l167 167h33c13 0 24 10 24 23 0 13-11 24-24 24 0 0-44 0-45 0-5 0-11-3-15-7l-133-133c0 0 0 118 0 119-1 12-11 21-24 21h-67c-5 0-9 4-9 9v403c0 5 4 9 9 9h671c5 0 9-4 9-9v-155c0-13 11-23 24-23s23 10 23 23v155c0 31-25 56-56 56z m217-289h-470c-31 0-56-25-56-56v-274c0-32 25-57 56-57h294l119-119c5-5 11-7 17-7 3 0 6 1 9 2 9 4 15 12 15 22v102h16c31 0 56 25 56 57v274c0 31-25 56-56 56z m9-330c0-6-4-10-9-10h-40c-12 0-23-9-24-21 0-1 0-71 0-71l-85 85c0 0 0 1-1 1 0 0 0 0-1 1-4 3-9 5-15 5h-304c-5 0-9 4-9 10v274c0 5 4 9 9 9h470c5 0 9-4 9-9v-274z m-244 160c-13 0-24-10-24-23 0-13 11-24 24-24 13 0 24 11 24 24 0 13-11 23-24 23z m-103 303c0 0-429 0-429 0-13 0-23-11-23-24s10-23 23-23h429c13 0 24 10 24 23s-11 24-24 24z m-266-156h-163c-13 0-23-11-23-24 0-13 10-23 23-23h163c13 0 24 10 24 23s-11 24-24 24z m259-147c-13 0-23-10-23-23 0-13 10-24 23-24 13 0 24 11 24 24 0 13-11 23-24 23z m220 0c-13 0-24-10-24-23 0-13 11-24 24-24 13 0 23 11 23 24 0 13-10 23-23 23z" horiz-adv-x="1000" />

<glyph glyph-name="favorites" unicode="&#xe811;" d="M922 456c18 18 25 44 17 68-8 24-28 41-53 45l-219 31c-4 1-8 4-10 8l-98 198c-11 23-34 37-59 37-25 0-48-14-59-37l-98-198c-2-4-6-7-10-8l-219-31c-25-4-45-21-53-45-8-24-1-50 17-68l158-154c3-3 5-8 4-12l-37-218c-5-25 5-49 26-64 20-15 47-17 69-5l196 103c4 2 8 2 12 0l196-103c10-6 20-8 31-8 13 0 27 4 38 13 21 15 31 39 27 64l-38 218c-1 4 1 9 4 12l158 154z m-214-175l38-218c1-7-4-11-6-13-2-1-7-4-14-1l-195 103c-10 5-20 8-31 8-10 0-21-3-31-8l-195-103c-7-3-12 0-14 1-2 2-7 6-5 13l37 218c4 22-4 43-19 59l-158 154c-6 5-4 11-4 13 1 3 4 8 11 9l219 32c21 3 40 17 49 36l98 198c4 7 10 8 12 8 3 0 9-1 12-8v0l98-198c9-19 28-33 49-36l219-32c8-1 10-6 11-9 1-2 2-8-3-13l-159-154c-15-16-22-37-19-59z m100 525c-12 8-28 6-37-6l-28-39c-8-11-6-28 6-36 5-4 10-5 16-5 8 0 16 3 21 10l28 39c9 12 6 28-6 37z m-551-44l-28 38c-9 12-25 15-37 6-12-9-15-25-6-37l28-38c5-7 13-11 21-11 6 0 11 1 16 5 12 8 14 25 6 37z m-160-511c-5 14-20 21-33 17l-46-15c-14-5-21-19-17-33 4-11 14-18 25-18 3 0 6 0 9 1l45 15c14 4 21 19 17 33z m403-293c-15 0-26-12-26-27v-47c0-15 11-27 26-27 15 0 26 12 26 27v47c0 15-11 27-26 27z m482 295l-45 15c-14 4-29-3-34-17-4-14 3-29 17-34l46-14c2-1 5-2 8-2 11 0 21 8 25 19 4 14-3 28-17 33z" horiz-adv-x="1000" />

<glyph glyph-name="user" unicode="&#xe816;" d="M998-7c-5 21-26 35-47 30-21-4-34-25-30-46 3-12 0-24-8-34-5-6-15-15-31-15h-763c-17 0-27 9-32 15-7 10-10 22-8 34 41 195 212 337 411 342 3 0 7 0 10 0 4 0 7 0 10 0 140-3 269-74 347-191 13-18 37-22 55-10 18 12 22 36 10 54-64 95-157 165-263 200 65 48 107 126 107 212 0 147-119 266-266 266s-266-119-266-266c0-86 42-164 107-212-59-20-115-50-164-90-89-74-151-176-174-289-8-35 1-71 24-99 22-28 56-44 92-44h763c35 0 69 16 91 44 23 28 32 64 25 99z m-685 591c0 104 84 188 187 188s188-84 188-188c0-100-79-182-178-187-4 0-7 0-10 0-3 0-6 0-9 0-99 5-178 87-178 187z" horiz-adv-x="1000" />

<glyph glyph-name="return" unicode="&#xe817;" d="M752 497c-2 0-681 0-681 0l143 161c9 10 8 26-2 35-11 10-27 9-36-2l-161-181c-20-22-20-55 0-77l161-181c5-5 12-8 19-8 6 0 12 2 17 6 10 10 11 26 2 36l-143 161c0 0 679 0 681 0 109 0 198-89 198-198s-89-198-198-198h-121c-14 0-25-11-25-25 0-14 11-26 25-26h121c137 0 248 112 248 249 0 137-111 248-248 248z" horiz-adv-x="1000" />

<glyph glyph-name="play-button" unicode="&#xe818;" d="M500 850c-276 0-500-224-500-500s224-500 500-500 500 224 500 500-224 500-500 500z m173-527l-250-156c-5-3-11-4-17-4-5 0-10 1-15 3-10 6-16 16-16 28v312c0 12 6 22 16 28 10 5 22 5 32-1l250-156c9-6 14-16 14-27s-5-21-14-27z" horiz-adv-x="1000" />

<glyph glyph-name="shoping" unicode="&#xe819;" d="M949 462c-21 27-50 41-81 41h-70c-7 181-138 326-298 326-160 0-291-145-298-326h-70c-31 0-60-14-81-41-26-32-36-78-26-122l85-373c13-56 56-96 106-96h568c49 0 93 40 106 96l85 373c10 44 0 90-26 122z m-449 287c116 0 212-109 218-246h-436c6 137 102 246 218 246z m397-391l-85-373c-4-19-16-34-28-34h-568c-12 0-24 15-28 34l-85 373c-4 19-7 65 29 65h736c39 0 33-46 29-65z m-595-14c-22 0-40-18-40-40v-249c0-22 18-40 40-40 22 0 40 18 40 40v249c0 22-18 40-40 40z m193 0c-22 0-39-18-39-40v-249c0-22 17-40 39-40 22 0 40 18 40 40v249c0 22-18 40-40 40z m193 0c-22 0-40-18-40-40v-249c0-22 18-40 40-40 22 0 40 18 40 40v249c0 22-18 40-40 40z" horiz-adv-x="1000" />

<glyph glyph-name="wave" unicode="&#xe81b;" d="M864 265c-36 0-54 17-71 32-14 13-26 24-50 24s-37-11-51-24c-16-15-35-32-71-32-36 0-54 17-70 32-15 13-26 24-51 24-25 0-36-11-51-24-16-15-35-32-71-32-36 0-54 17-70 32-15 13-26 24-51 24-25 0-36-11-51-24-16-15-34-32-70-32-36 0-55 17-71 32-15 13-26 24-51 24-8 0-15 6-15 14 0 8 7 15 15 15 36 0 54-17 71-32 14-13 26-23 51-23 24 0 36 10 50 23 17 15 35 32 71 32 36 0 54-17 71-32 14-13 26-23 50-23 25 0 37 10 51 23 16 15 35 32 71 32 36 0 54-17 70-32 15-13 26-23 51-23 25 0 36 10 51 23 16 15 35 32 71 32s54-17 70-32c15-13 26-23 51-23 25 0 36 10 51 23 16 15 34 32 70 32 8 0 15-7 15-15 0-8-7-14-15-14-24 0-36-11-50-24-17-15-35-32-71-32z" horiz-adv-x="1000" />

<glyph glyph-name="arrow" unicode="&#xe81c;" d="M741 839l21-22-458-458c-5-5-5-14 0-20l458-458-21-22c-5-4-14-4-19 0l-481 480c-4 6-4 15 0 20l481 480c5 6 14 6 19 0l0 0z" horiz-adv-x="1000" />

<glyph glyph-name="cart" unicode="&#xe81d;" d="M933 567c-37 0-67-30-67-67 0-12 4-23 10-33l-33-33h-73l29 158 23 26c13 16 15 39 4 57l44 54 43 51c5 8 4 18-3 24l-51 42c-7 6-18 5-24-2l-86-105c-20 7-42 1-56-15l-90-107h-53c-9 0-17-8-17-17 0-1 0-2 0-3l30-163h-130v78l64 96c5 7 3 18-5 23-2 1-6 2-9 2h-133c-9 0-17-7-17-16 0-3 1-7 3-9l64-96v-78h-33v50c0 9-8 16-17 16h-18c-5 51-36 95-82 118-2 36-33 65-70 63-34-2-61-29-63-63-46-23-77-67-83-118h-17c-9 0-17-7-17-16v-267c0-9 8-17 17-17h16v-222c0-1 1-2 1-3-32-18-43-59-25-91 18-32 59-43 91-25 20 12 33 34 33 58h500c0-37 30-67 66-67 37 0 67 29 67 66 1 24-12 46-33 58v226h17c9 0 16 8 16 17v183h84c4 0 8 2 12 5l37 38c11-6 22-9 34-9 37 0 67 29 67 66 0 37-30 67-67 67z m-481 33l-35-53-36 53z m232 61l53-44h-90z m16-78l-34-46-33 46z m151 227l25-21-21-26-26 21z m-121-102c5 1 9 0 12-3 8-6 18-5 24 2l42 51 26-21-42-51c-6-7-5-18 2-24 0 0 0 0 0 0 3-2 5-7 6-11 0-4-1-8-3-11l-15-17-77 63 14 16c3 4 7 6 11 6z m-160-125h21l62-84c5-8 16-9 23-4 2 1 3 2 4 4l62 84h21l-27-149h-139z m-387 67c13 0 25-8 31-20-20 4-41 4-61 0 5 12 17 20 30 20z m0-50c58 0 107-43 116-100h-231c8 57 57 100 115 100z m150-133v-33h-300v33z m-266-583c-19 0-34 15-34 33s15 33 34 33 33-15 33-33-15-33-33-33z m633 0c-19 0-34 15-34 33s15 33 34 33 33-15 33-33-15-33-33-33z m0 100c-24-1-46-13-58-34h-518c-12 21-34 33-57 34v16h33v34h-33v33h66v33h-66v34h100v33h-100v33h633z m33 250h-700v166h700z m200 233c-18 0-33 15-33 33s15 33 33 33 33-14 33-33-15-33-33-33z m0 0m-816 250c9 0 16 7 16 16 0 15 5 30 14 41 13 17 20 38 20 59 0 10-8 17-17 17-9 0-17-7-17-17 1-14-4-29-14-40-12-17-19-38-19-60 0-9 7-16 17-16z m0 0m66 0c10 0 17 7 17 16 0 15 5 30 14 41 13 17 20 38 19 59 0 10-7 17-16 17-10 0-17-7-17-17 0-14-5-29-14-40-13-17-20-38-19-60 0-9 7-16 16-16z m0 0m67 0c9 0 17 7 17 16-1 15 4 30 13 41 13 17 20 38 20 59 0 10-8 17-17 17-9 0-16-7-16-17 0-14-5-29-14-40-13-17-20-38-20-60 0-9 8-16 17-16z m0 0m283-417h34v-33h-34z m0 0m67 0h33v-33h-33z m0 0m66 0h34v-33h-34z m0 0" horiz-adv-x="1000" />

<glyph glyph-name="fan" unicode="&#xe81e;" d="M909 489c-28 225-234 386-459 358s-386-233-359-459c24-188 171-335 359-358v-79h-118c-28 0-50-23-50-51v-50h437v50c0 28-23 51-51 51h-118v79c226 28 387 233 359 459z m-241-572c9 0 17-7 17-17v-16h-370v16c0 10 8 17 17 17h336z m-185 34v67h34v-67h-34z m17 109c-209 0-378 169-378 378 0 209 169 378 378 378 209 0 378-169 378-378s-169-378-378-378z m353 345v33c0 9-8 17-17 17h-196c83 58 104 174 45 257-34 50-91 79-151 79h-34c-9 0-17-7-17-17v-196c-58 83-173 104-257 45-49-34-79-91-79-151v-34c0-9 8-17 17-17h196c-49-34-78-91-78-151 0-102 82-185 184-185h34c9 0 17 8 17 17v197c58-84 173-104 257-46 50 35 79 91 79 152z m-336 352h17c83 0 151-67 151-151 0-65-43-123-105-144-9 30-33 52-63 59v236z m-336-302v17c0 83 68 151 151 151 66 0 124-43 144-105-30-9-52-33-58-63h-237z m302-336h-17c-83 0-151 68-151 151 1 66 43 124 105 144 9-29 33-52 63-58v-237z m17 269c-28 0-50 22-50 50s22 51 50 51 50-23 50-51-22-50-50-50z m168-134c-66 0-124 42-144 104 30 9 52 33 58 63h237v-16c0-84-68-152-151-151z" horiz-adv-x="1000" />

<glyph glyph-name="microwave-oven" unicode="&#xe81f;" d="M917 733h-834c-46 0-83-37-83-83v-533c0-26 12-51 33-67v-83h100v66h734v-66h100v83c21 16 33 41 33 67v533c0 46-37 83-83 83z m-817-733h-33v33h33v-33z m833 0h-33v33h33v-33z m34 117c0-28-23-50-50-50h-834c-27 0-50 22-50 50v533c0 28 23 50 50 50h834c27 0 50-22 50-50v-533z m-867 166v-150h600v500h-600v-350z m33 317h534v-317h-534v317z m0-350h534v-83h-534v83z m700 383c-46 0-83-37-83-83s37-83 83-83c46 0 84 37 84 83 0 46-38 83-84 83z m48-100c-8-20-26-33-48-33-27 0-50 22-50 50 0 21 14 40 34 47v-47h33v47c26-9 40-38 31-64z m-48-100c-46 0-83-37-83-83s37-83 83-83c46 0 84 37 84 83 0 46-38 83-84 83z m48-100c-8-20-26-33-48-33-27 0-50 22-50 50 0 21 14 40 34 47v-47h33v47c26-9 40-38 31-64z" horiz-adv-x="1000" />

<glyph glyph-name="router" unicode="&#xe820;" d="M944 239h-18v370c0 31-25 56-56 56s-55-25-55-56v-370h-630v352c0 30-25 55-55 55s-56-25-56-55v-352h-18c-31 0-56-25-56-56v-148c0-30 25-55 56-55h18v-74h111v74h630v-74h111v74h18c31 0 56 25 56 55v148c0 31-25 56-56 56z m-92 370c0 11 8 19 18 19s19-8 19-19v-370h-37v370z m-741-18c0 10 8 18 19 18s18-8 18-18v-352h-37v352z m37-648h-37v37h37v-37z m296 74h-388c-11 0-19 8-19 18v148c0 11 8 19 19 19h388v-185z m445-74h-37v37h37v-37z m74 92c0-10-8-18-19-18h-462v185h462c11 0 19-8 19-19v-148z m-148 19h111v111h-111v-111z m37 74h37v-37h-37v37z m-185-74h111v111h-111v-111z m37 74h37v-37h-37v37z m-185-74h111v111h-111v-111z m37 74h37v-37h-37v37z m-284 539c0 0 0 0 0 0 128 120 328 120 456 0 3-3 8-5 13-5 10 0 18 9 18 19 0 5-2 10-5 13-143 134-365 134-507 0-8-7-9-18-2-26s19-8 27-1z m383-87c10 0 18 9 18 19 0 5-2 10-5 13-95 89-241 89-335 0-8-7-9-18-2-26 7-8 19-8 27-1 0 0 0 0 0 0 80 75 204 75 284 0 3-3 8-5 13-5z m-236-50c-8-7-8-19-1-26 7-7 19-8 26-1 32 30 81 30 112 0 8-7 19-6 26 1 7 7 7 19 0 26-46 43-118 43-163 0z" horiz-adv-x="1000" />

<glyph glyph-name="strongbox" unicode="&#xe821;" d="M983 850h-966c-9 0-17-7-17-17v-966c0-10 8-17 17-17h83c8 0 14 5 16 13l14 54h740l14-54c2-8 8-13 16-13h83c10 0 17 7 17 17v966c0 10-7 17-17 17z m-896-967h-54v34h62z m880 0h-54l-8 34h62z m0 67h-934v867h934z m0 0m-900 367h33v-284c0-9 8-16 17-16h766c10 0 17 7 17 16v100h17c9 0 16 8 16 17v100c0 9-7 17-16 17h-17v233h17c9 0 16 8 16 17v100c0 9-7 16-16 16h-17v100c0 10-7 17-17 17h-766c-9 0-17-7-17-17v-283h-33c-9 0-17-7-17-17v-100c0-9 8-16 17-16z m833-150h-50v66h50z m0 433v-67h-50v67z m-767 117h734v-84h-34c-9 0-16-7-16-16v-100c0-9 7-17 16-17h34v-233h-34c-9 0-16-8-16-17v-100c0-9 7-17 16-17h34v-83h-734v267h34c9 0 16 7 16 16v100c0 10-7 17-16 17h-34z m-50-300h67v-67h-67z m0 0m417 8c37 0 67 30 67 67 0 37-30 66-67 66s-67-29-67-66c0-37 30-67 67-67z m0 100c18 0 33-15 33-33 0-19-15-34-33-34s-33 15-33 34c0 18 15 33 33 33z m0 0m0-225c-46 0-83-37-84-83 0-46 37-83 83-84 27 0 51 13 67 34h117c28 0 50 22 50 50 0 27-22 50-50 50h-117c-15 21-40 33-66 33z m0-133c-28 0-50 22-50 50 0 27 22 50 50 50s50-23 50-50c0-28-22-50-50-50z m82 66h101c10 0 17-7 17-16 0-9-7-17-17-17h-101c2 11 2 22 0 33z m0 0m-82 100c87 0 158 71 158 159 0 87-71 158-158 158s-158-71-158-158c0-88 71-159 158-159z m-100 175h-24c3 22 12 42 25 59l16-16c7-7 18-7 24 0 7 6 7 17 0 23l-17 17c18 13 38 22 59 24v-23c0-9 8-17 17-17s17 8 17 17v23c21-2 42-11 59-24l-17-17c-7-6-7-17 0-23 6-7 17-7 24 0l16 16c13-17 22-37 25-59h-24c-9 0-17-7-17-16 0-9 8-17 17-17h24c-3-21-12-42-25-59l-16 17c-7 6-17 6-24 0-6-7-6-17 0-24l17-17c-17-13-38-21-59-24v24c0 9-8 16-17 16s-17-7-17-16v-24c-21 3-41 11-59 24l17 17c7 7 7 17 0 24-6 6-17 6-23 0l-17-17c-13 17-22 38-25 59h24c9 0 17 8 17 17 0 9-8 16-17 16z m0 0" horiz-adv-x="1000" />

<glyph glyph-name="television" unicode="&#xe822;" d="M917 633h-300c0 32-19 61-48 75l94 115c6 7 5 17-2 23s-18 5-24-2c0 0 0 0 0 0l-104-127h-66l-104 127c-6 7-16 8-24 2-6-6-7-16-2-23l94-115c-29-14-48-43-48-75h-216c-92 0-167-74-167-166v-384c0-60 32-115 85-145-1-1-1-3-2-5v-66c0-10 8-17 17-17h67c9 0 16 7 16 17v50h650v-50c0-10 8-17 17-17h67c9 0 16 7 16 17v51c39 8 67 42 67 82v550c0 46-37 83-83 83z m-450 50h66c28 0 50-22 50-50h-166c0 28 22 50 50 50z m-317-800h-33v34h33v-34z m533 467v-400h-516c-74 0-133 60-134 133v384c1 73 60 133 134 133h516v-250z m217-467h-33v34h33v-34z m67 117c0-28-23-50-50-50h-200v183h250v-133z m0 167h-250v166h250v-166z m0 200h-250v233h200c27 0 50-22 50-50v-183z m-141 199h0c-46-4-80-44-76-90 4-43 40-76 83-76 3 0 5 0 7 0 46 4 80 44 76 90-4 46-44 80-90 76z m-42-87c-3 28 18 52 45 54 2 0 3 0 4 0 10 0 20-3 28-9l-75-57c-1 4-2 8-2 12z m54-46c-11 0-22 2-31 8l74 57c1-4 2-7 2-11 2-27-18-51-45-54z m-71-450h150c9 0 16 8 16 17v83c0 10-7 17-16 17h-150c-10 0-17-7-17-17v-83c0-9 7-17 17-17z m16 84h117v-50h-117v50z m-716 383v-350c0-64 52-117 116-117h350c65 0 117 53 117 117v350c0 64-52 117-117 117h-350c-64 0-116-53-116-117z m116 83h350c46 0 84-37 84-83v-350c0-46-38-83-84-83h-350c-46 0-83 37-83 83v350c0 46 37 83 83 83z" horiz-adv-x="1000" />

<glyph glyph-name="bathtub" unicode="&#xe823;" d="M950 433h-46v274c0 51-42 93-94 93 0 0 0 0 0 0h-23c0 0 0 0 0 0l-15 25c-13 24-44 32-68 18l-29-16c-8-5-11-15-6-23l58-101c3-5 8-8 14-8 3 0 6 0 9 2l29 16c18 11 28 33 23 54h8c33 0 60-27 60-60v0-274h-120c0 28-22 50-50 50h-167c-27 0-50-22-50-50h-333v67h33c0-9 8-17 17-17 9 0 17 8 17 17v33c0 10-8 17-17 17-9 0-17-7-17-17h-33v100c0 19 15 34 33 34 19 0 34-15 34-34v-33c0-9 7-17 16-17 10 0 17 8 17 17v33c0 37-30 67-67 67-36 0-66-30-66-67v-100h-34c0 10-7 17-16 17-9 0-17-7-17-17v-33c0-9 8-17 17-17 9 0 16 8 16 17h34v-67h-67c-28 0-50-22-50-50 0-27 22-50 50-50h5l72-189c25-64 75-116 140-142v-52c0-28 22-50 50-50 27 0 50 22 50 50v33h266v-33c0-28 23-50 50-50 28 0 50 22 50 50v52c65 26 115 78 140 142l72 189h5c28 0 50 23 50 50 0 28-22 50-50 50z m-188 309l-15-8-41 72 15 9c8 4 18 1 22-6 0-1 0-1 0-1l25-43c5-8 2-18-6-23 0 0 0 0 0 0z m-245-542h200v-33h-200z m0 33v34h200v-34z m0 200c0 10 7 17 16 17h167c9 0 17-7 17-17v-133h-200z m-484-50c0 10 8 17 17 17h433v-33h-433c-9 0-17 7-17 16z m300-433c0-9-7-17-16-17-9 0-17 8-17 17v83c0 10 8 17 17 17 9 0 16-7 16-17z m367 0c0-9-7-17-17-17-9 0-16 8-16 17v83c0 10 7 17 16 17 10 0 17-7 17-17z m142 206c-20-52-59-94-109-118-3 28-27 48-54 45-26-2-46-24-46-50v-16h-266v16c0 28-22 50-50 50-26 1-48-19-50-45-50 24-89 66-109 118l-42 111h67c10 0 17 7 17 16 0 10-7 17-17 17h-79l-13 33h392v-183c0-9 8-17 17-17h233c10 0 17 8 17 17v183h159z m108 211h-200v33h200c9 0 17-7 17-17 0-9-8-16-17-16z m0 0m-683-67h-17c-9 0-17-7-17-17 0-9 8-16 17-16h17c9 0 16 7 16 16 0 10-7 17-16 17z m0 0" horiz-adv-x="1000" />

<glyph glyph-name="bed" unicode="&#xe824;" d="M983 283h-16v134c0 33-20 63-50 76v207c0 33-20 63-50 76v24c0 28-23 50-50 50-28 0-50-22-50-50v-17h-534v17c0 28-22 50-50 50-27 0-50-22-50-50v-24c-30-13-50-43-50-76v-207c-30-13-50-43-50-76v-134h-16c-9 0-17-7-17-16v-234c0-27 22-50 50-50 28 0 50 23 50 50v50h800v-50c0-27 22-50 50-50 28 0 50 23 50 50v234c0 9-7 16-17 16z m-183 517c0 9 8 17 17 17 9 0 16-8 16-17v-17h-33z m-633 0c0 9 7 17 16 17 10 0 17-8 17-17v-17h-33z m-50-100c0 28 22 50 50 50h666c28 0 50-22 50-50v-200h-42c6 10 9 22 9 33v67c0 37-30 67-67 67h-183c-37 0-67-30-67-67v-67c0-11 4-23 10-33h-86c6 10 10 22 10 33v67c0 37-30 67-67 67h-183c-37 0-67-30-67-67v-67c0-11 3-23 9-33h-42z m700-100v-67c0-18-15-33-34-33h-183c-18 0-33 15-33 33v67c0 18 15 33 33 33h183c19 0 34-15 34-33z m-384 0v-67c0-18-15-33-33-33h-183c-19 0-34 15-34 33v67c0 18 15 33 34 33h183c18 0 33-15 33-33z m-366-183c0 27 22 50 50 50h766c28 0 50-23 50-50v-134h-866z m0-384c0-9-8-16-17-16-9 0-17 7-17 16v50h34z m900 0c0-9-8-16-17-16-9 0-17 7-17 16v50h34z m0 84h-934v33h184c9 0 16 8 16 17 0 9-7 16-16 16h-184v67h934z m0 0m-650 66h-34c-9 0-16-7-16-16 0-9 7-17 16-17h34c9 0 16 8 16 17 0 9-7 16-16 16z m0 0m100 0h-34c-9 0-16-7-16-16 0-9 7-17 16-17h34c9 0 16 8 16 17 0 9-7 16-16 16z m0 0m433 250h-33c-9 0-17-7-17-16 0-9 8-17 17-17h33c9 0 17-7 17-17v-33c0-9 7-17 16-17 10 0 17 8 17 17v33c0 28-22 50-50 50z m0 0" horiz-adv-x="1000" />

<glyph glyph-name="boat-anchor" unicode="&#xe825;" d="M845 116l-33 109c-1 4-4 6-7 8-3 2-7 2-10 1l-109-33c-5-1-9-6-9-11-1-6 2-11 7-13l39-22c-38-71-109-120-189-131v446h81c10-13 26-21 43-21 30 0 55 24 55 55 0 30-25 54-55 54-17 0-33-8-43-21h-81v93c45 15 79 57 79 108 0 62-51 112-113 112s-112-50-112-112c0-51 33-93 78-108v-93h-81c-10 13-26 21-43 21-30 0-55-24-55-54 0-31 25-55 55-55 17 0 33 8 43 21h81v-446c-80 11-151 60-189 131l39 22c5 2 8 7 8 13-1 5-5 10-10 11l-109 33c-3 1-7 1-10-1-3-2-6-4-7-8l-32-109c-2-5 0-11 4-14 2-2 5-3 8-3 3 0 5 0 7 1l42 23c26-50 65-88 113-120 82-53 127-84 146-132 3-9 9-21 24-21 15 0 21 12 24 21 19 48 64 79 146 132 48 32 87 70 113 120l42-23c2-1 4-1 7-1 3 0 6 1 8 3 4 3 6 9 5 14z m-345 576c-25 0-45 21-45 46 0 24 20 45 45 45 25 0 45-21 45-45 0-25-20-46-45-46z" horiz-adv-x="1000" />

<glyph glyph-name="dove" unicode="&#xe826;" d="M957 592c-1 5-5 10-10 11-25 7-52 2-73-14 0 7-1 14-2 21 55 11 82 71 55 119-5 8-15 7-13 7-25 0-48-12-63-31-2 5-4 10-6 16 27 62-20 132-88 129-5 0-10-3-13-8-30-58 8-130 75-135 2-5 3-9 5-13-25 12-53 11-76-2-5-3-8-7-8-13 0-28 16-56 41-70-2 0-4 0-6-1-5-1-9-5-11-10-15-51 23-103 77-103-3-18-7-35-12-52 0-2-1-3-1-5-27 7-44 9-48 23-10 47-53 80-101 77-56-4-98-53-90-109 2-21-2-39-13-55-8 96-63 175-160 213-125 49-138 113-138 116-1 5-5 10-10 12-5 2-11 0-15-4-3-2-49-51-45-127-9 14-15 28-20 42-8 23-40 23-48 0-129-351 220-355 239-425 11-39-102-151-282-96-1 0-7 1-7 2-25 5-46-7-49-36 0-2-1-47 18-99 19-50 43-86 96-116 7-4 14-6 22-6 5 0 9 1 14 2 12 4 22 13 27 25 19 44 64 120 152 129 8 0 14 8 13 16 0 8-8 14-16 13-102-10-154-96-176-147-2-4-5-7-9-8-4-1-9-1-12 1-45 26-65 54-84 102-10 27-15 56-16 86 2 12 7 11 18 7 60-17 176-36 274 41 2 1 19 16 33 38 46 69-28 100-81 126-51 23-108 50-142 100-39 55-42 129-8 226 16-40 53-99 136-109 83-9 190-44 228-156 5-14 19-22 33-19 10 3 66 39 57 109-1 5-1 9-1 13 3 34 30 61 64 64 34 2 64-22 71-55 0-1 0-1 0-1 2-11 14-30 43-37l27-7-41-15c-36-13-73-60-72-133 0 0 0-1 0-1 0-7 0-7 0-13 0-9 7-15 15-15 0 0 0 0 0 0 8 0 14 6 14 15 0 3 0 6 0 9 0 2 0 3 0 5 0 0 0 0 0 0 0 18 2 33 6 47 13 38 28 51 57 62-9-18-19-35-30-51-7-10 0-23 12-23 4 0 9 2 12 6 24 35 41 73 45 83l34 13c13 6 12 25-1 28l-17 5c6 21 11 42 14 63 56-6 100 45 87 98z m-68-29c12 11 26 15 41 14 2-32-25-57-56-54 0 9-1 25 15 40z m-69 173c-41 4-67 46-53 84 41-4 67-45 53-84z m-517-209c-23 3-43 10-58 21-18 55-1 99 14 123 15-29 53-75 146-111 65-26 109-70 130-132 7-20 10-38 12-53-44 96-139 140-244 152z m467 143c30 11 62-8 68-39-30-11-62 8-68 39z m74-146c-32-2-57 26-53 57 32 1 56-26 53-57z m-11 76c4 0 7 1 11 2 0-3 0-7 1-10-4 3-8 5-12 8z m30 61c3 23 20 41 42 45 10-29-7-60-37-67-1 7-3 15-5 22z m-146-469c-8 3-16-1-19-9-36-100-142-163-259-152-8 1-16-5-16-13-1-8 5-15 13-16 137-13 252 66 290 171 2 8-2 16-9 19z" horiz-adv-x="1000" />

<glyph glyph-name="pin" unicode="&#xe827;" d="M500 850c-184 0-333-149-333-333 0-55 14-110 40-159l275-497c3-7 10-11 18-11s15 4 18 11l275 497c27 49 40 104 40 159 0 184-149 333-333 333z m0-500c-92 0-167 75-167 167 0 92 75 166 167 166s167-74 167-166c0-92-75-167-167-167z" horiz-adv-x="1000" />

<glyph glyph-name="sea-waves" unicode="&#xe828;" d="M864 561c-36 0-54 17-70 31-15 14-27 24-51 24-25 0-36-10-51-24-16-14-35-31-71-31-36 0-54 17-70 31-15 14-26 24-51 24-25 0-36-10-51-24-16-14-34-31-70-31-36 0-55 17-71 31-14 14-26 24-51 24-24 0-36-10-50-24-17-14-35-31-71-31-36 0-54 17-71 31-14 14-26 24-50 24-8 0-15 7-15 15 0 8 7 14 15 14 36 0 54-16 70-31 15-14 26-24 51-24 25 0 36 10 51 24 16 15 34 31 70 31 36 0 55-16 71-31 14-14 26-24 51-24 24 0 36 10 50 24 17 15 35 31 71 31 36 0 54-16 71-31 14-14 26-24 50-24 25 0 37 10 51 24 16 15 35 31 71 31s54-16 70-31c15-14 26-24 51-24 25 0 36 10 51 24 16 15 34 31 70 31 9 0 15-6 15-14 0-8-6-15-15-15-24 0-36-10-50-24-17-14-35-31-71-31z m0-127c-36 0-54 17-70 32-15 13-27 24-51 24-25 0-36-11-51-24-16-15-35-32-71-32-36 0-54 17-70 32-15 13-26 24-51 24-25 0-36-11-51-24-16-15-34-32-70-32-36 0-55 17-71 32-14 13-26 24-51 24-24 0-36-11-50-24-17-15-35-32-71-32-36 0-54 17-71 32-14 13-26 24-50 24-8 0-15 6-15 14 0 8 7 15 15 15 36 0 54-17 70-32 15-13 26-24 51-24 25 0 36 11 51 24 16 15 34 32 70 32 36 0 55-17 71-32 14-13 26-24 51-24 24 0 36 11 50 24 17 15 35 32 71 32 36 0 54-17 71-32 14-13 26-24 50-24 25 0 37 11 51 24 16 15 35 32 71 32s54-17 70-32c15-13 26-24 51-24 25 0 36 11 51 24 16 15 34 32 70 32 9 0 15-7 15-15 0-8-6-14-15-14-24 0-36-11-50-24-17-15-35-32-71-32z m0-126c-36 0-54 16-70 31-15 14-27 24-51 24-25 0-36-10-51-24-16-15-35-31-71-31-36 0-54 16-70 31-15 14-26 24-51 24-25 0-36-10-51-24-16-15-34-31-70-31-36 0-55 16-71 31-14 14-26 24-51 24-24 0-36-10-50-24-17-15-35-31-71-31-36 0-54 16-71 31-14 14-26 24-50 24-8 0-15 7-15 15 0 8 7 14 15 14 36 0 54-16 70-31 15-14 26-24 51-24 25 0 36 10 51 24 16 15 34 31 70 31 36 0 55-16 71-31 14-14 26-24 51-24 24 0 36 10 50 24 17 15 35 31 71 31 36 0 54-16 71-31 14-14 26-24 50-24 25 0 37 10 51 24 16 15 35 31 71 31s54-16 70-31c15-14 26-24 51-24 25 0 36 10 51 24 16 15 34 31 70 31 9 0 15-6 15-14 0-8-6-15-15-15-24 0-36-10-50-24-17-15-35-31-71-31z m0-127c-36 0-54 17-70 32-15 13-27 24-51 24-25 0-36-11-51-24-16-15-35-32-71-32-36 0-54 17-70 32-15 13-26 24-51 24-25 0-36-11-51-24-16-15-34-32-70-32-36 0-55 17-71 32-14 13-26 24-51 24-24 0-36-11-50-24-17-15-35-32-71-32-36 0-54 17-71 32-14 13-26 24-50 24-8 0-15 6-15 14 0 8 7 15 15 15 36 0 54-17 70-32 15-13 26-24 51-24 25 0 36 11 51 24 16 15 34 32 70 32 36 0 55-17 71-32 14-13 26-24 51-24 24 0 36 11 50 24 17 15 35 32 71 32 36 0 54-17 71-32 14-13 26-24 50-24 25 0 37 11 51 24 16 15 35 32 71 32s54-17 70-32c15-13 26-24 51-24 25 0 36 11 51 24 16 15 34 32 70 32 9 0 15-7 15-15 0-8-6-14-15-14-24 0-36-11-50-24-17-15-35-32-71-32z m0-126c-36 0-54 16-70 31-15 14-27 24-51 24-25 0-36-10-51-24-16-15-35-31-71-31-36 0-54 16-70 31-15 14-26 24-51 24-25 0-36-10-51-24-16-15-34-31-70-31-36 0-55 16-71 31-14 14-26 24-51 24-24 0-36-10-50-24-17-15-35-31-71-31-36 0-54 16-71 31-14 14-26 24-50 24-8 0-15 7-15 15 0 8 7 14 15 14 36 0 54-16 70-31 15-14 26-24 51-24 25 0 36 10 51 24 16 15 34 31 70 31 36 0 55-16 71-31 14-14 26-24 51-24 24 0 36 10 50 24 17 15 35 31 71 31 36 0 54-16 71-31 14-14 26-24 50-24 25 0 37 10 51 24 16 15 35 31 71 31s54-16 70-31c15-14 26-24 51-24 25 0 36 10 51 24 16 15 34 31 70 31 9 0 15-6 15-14 0-8-6-15-15-15-24 0-36-10-50-24-17-15-35-31-71-31z" horiz-adv-x="1000" />
</font>
</defs>
</svg>
